Gravedad (2013) 1080p Latino

Ficha

Titulo Original: Gravity

1080p | 1920×800 | MKV | H.264 | Encoder by: CinemaniaHD | 2.0  GB | 1:30:58 min | Audio: Español Latino (AC3 5.1 DVD) – Ingles (AC3 5.1 BD)  | Subtitulo: Español Latino-Ingles | Drama. Ciencia Ficción | 2013 | 5% Registro de Recuperación (Reparar Rar dañados)

MediaInfo:

Cita: Ocultar General
Gravity (2013) [1080p Dual] CinemaniaHD.mkv
Format : Matroska
Format version : Version 4 / Version 2
File size : 1.95 GiB
Duration : 1h 30mn
Overall bit rate : 3 073 Kbps
Movie name : Gravity (2013) [1080p Dual] CinemaniaHD
Encoded date : UTC 2014-02-07 02:09:52
Writing application : mkvmerge v6.0.0 (‘Coming Up For Air’) built on Jan 20 2013 09:52:00
Writing library : libebml v1.3.0 + libmatroska v1.4.0
Video
ID : 1
Format : AVC
Format/Info : Advanced Video Codec
Format profile : Main@L4.0
Format settings, CABAC : Yes
Format settings, ReFrames : 4 frames
Codec ID : V_MPEG4/ISO/AVC
Duration : 1h 30mn
Bit rate : 2 400 Kbps
Width : 1 920 pixels
Height : 800 pixels
Display aspect ratio : 2.40:1
Frame rate mode : Constant
Frame rate : 23.976 fps
Color space : YUV
Chroma subsampling : 4:2:0
Bit depth : 8 bits
Scan type : Progressive
Bits/(Pixel*Frame) : 0.065
Stream size : 1.47 GiB (75%)
Title : WwW.CinemaniaHD.org
Writing library : x264 core 130 r2273 b3065e6
Encoding settings : cabac=1 / ref=1 / deblock=1:0:0 / analyse=0×1:0×111 / me=hex / subme=2 / psy=1 / psy_rd=1.00:0.00 / mixed_ref=0 / me_range=16 / chroma_me=1 / trellis=0 / 8x8dct=0 / cqm=0 / deadzone=21,11 / fast_pskip=1 / chroma_qp_offset=0 / threads=36 / lookahead_threads=6 / sliced_threads=0 / nr=0 / decimate=1 / interlaced=0 / bluray_compat=0 / constrained_intra=0 / bframes=3 / b_pyramid=2 / b_adapt=1 / b_bias=0 / direct=1 / weightb=1 / open_gop=0 / weightp=1 / keyint=240 / keyint_min=24 / scenecut=40 / intra_refresh=0 / rc_lookahead=10 / rc=abr / mbtree=1 / bitrate=2400 / ratetol=1.0 / qcomp=0.60 / qpmin=0 / qpmax=69 / qpstep=4 / vbv_maxrate=20000 / vbv_bufsize=25000 / nal_hrd=none / ip_ratio=1.40 / aq=1:1.00
Default : Yes
Forced : No
Color primaries : BT.709
Transfer characteristics : BT.709
Matrix coefficients : BT.709
Audio #1
ID : 2
Format : AC-3
Format/Info : Audio Coding 3
Mode extension : CM (complete main)
Format settings, Endianness : Big
Codec ID : A_AC3
Duration : 1h 30mn
Bit rate mode : Constant
Bit rate : 384 Kbps
Channel count : 6 channels
Channel positions : Front: L C R, Side: L R, LFE
Sampling rate : 48.0 KHz
Bit depth : 16 bits
Compression mode : Lossy
Delay relative to video : 1s 0ms
Stream size : 250 MiB (12%)
Title : Audio Latino [WwW.CinemaniaHD.org]
Default : Yes
Forced : No
Audio #2
ID : 3
Format : AC-3
Format/Info : Audio Coding 3
Mode extension : CM (complete main)
Format settings, Endianness : Big
Codec ID : A_AC3
Duration : 1h 30mn
Bit rate mode : Constant
Bit rate : 320 Kbps
Channel count : 6 channels
Channel positions : Front: L C R, Side: L R, LFE
Sampling rate : 44.1 KHz
Bit depth : 16 bits
Compression mode : Lossy
Stream size : 208 MiB (10%)
Title : Audio Ingles [WwW.CinemaniaHD.org]
Default : No
Forced : No
Text #1
ID : 4
Format : UTF-8
Codec ID : S_TEXT/UTF8
Codec ID/Info : UTF-8 Plain Text
Title : Subtitulos Latino [WwW.CinemaniaHD.org]
Default : No
Forced : No
Text #2
ID : 5
Format : UTF-8
Codec ID : S_TEXT/UTF8
Codec ID/Info : UTF-8 Plain Text
Title : Subtitulos Ingles [WwW.CinemaniaHD.org]
Default : No
Forced : No
Text #3
ID : 6
Format : UTF-8
Codec ID : S_TEXT/UTF8
Codec ID/Info : UTF-8 Plain Text
Title : WwW.CinemaniaHD.org
Default : Yes
Forced : No


Sinopsis

Mientras reparan un satélite fuera de su nave, dos astronautas sufren un grave accidente y quedan flotando en el espacio. Son la doctora Ryan Stone, una brillante ingeniera que realiza su primera misión espacial, y el veterano astronauta Matt Kowalsky. La misión exterior parecía rutinaria, pero una lluvia de basura espacial les alcanza y se produce el desastre: el satélite y parte de la nave quedan destrozados, dejando a Ryan y Matt completamente solos, momento a partir del cual intentarán por todos los medios buscar una solución para volver a la Tierra.

Capturas DESCARGAR

Links Intercambiables


>>Enlace para Descargar Gravedad (2013) 1080p Latino 1 Link<<

http://www.putlocker.com/file/4C93419E998C7918


http://www.putlocker.com/file/9160846D53C62759


http://www.putlocker.com/file/5ADD2200587FE02D


http://www.putlocker.com/file/20D3CA29CFC7C093


http://www.putlocker.com/file/7D31BD4F204FBEC8


https://mega.co.nz/#!uAYi1RoY!hi5rxJLWK1OiNXl_QBrMcGSzUdYCsJNTzoYazpFEoY0


https://mega.co.nz/#!HQwjVKzR!oCb4SPngzDn_jeo2oAw_IKQYl1KTv_XuUTjIXdYKvIs


https://mega.co.nz/#!qZ4SRZBD!U5NnOnX3fwxGKFjrVnd2rtspFX1uE9QMuB4Z9OwLvDY


https://mega.co.nz/#!yRBUAAZJ!B5ZhyhReuT0uACfnMb-9XvelcAGwY2k4yTmDEK2wJl8


https://mega.co.nz/#!TEJADLLA!O4H8BY8QcwKUKqxFML-8MDOKVUSGjhxVbgfK8d5temg
CinemaniaHD.org

Gravedad (2013) 1080p Latino

Descargar Gravedad (2013) 1080p Latino 1 link desde Mega identi